<?xml version="1.0" standalone="no"?>
<!DOCTYPE svg PUBLIC "-//W3C//DTD SVG 1.1//EN" "http://www.w3.org/Graphics/SVG/1.1/DTD/svg11.dtd" >
<svg xmlns="http://www.w3.org/2000/svg" xmlns:xlink="http://www.w3.org/1999/xlink" version="1.1">
<metadata>
Created by FontForge 20170924 at Tue Apr 11 17:34:22 2017
 By www-data
Imagex 2016. All Rights Reserved
</metadata>
<defs>
<font id="HeroesLegend" horiz-adv-x="2557" >
  <font-face 
    font-family="Heroes Legend"
    font-weight="400"
    font-stretch="normal"
    units-per-em="2048"
    panose-1="2 0 5 0 0 0 0 0 0 0"
    ascent="1638"
    descent="-410"
    x-height="1837"
    cap-height="2364"
    bbox="-183 -1169.13 4172.92 3364"
    underline-thickness="150"
    underline-position="-292"
    unicode-range="U+0020-20AC"
  />
<missing-glyph horiz-adv-x="1024" 
d="M100 0v1434h824v-1434h-824zM150 50h724v1334h-724v-1334zM325 1148q31 28 58 43q53 30 112 30q92 0 148 -47.5t56 -127.5q0 -49 -23 -98.5t-87 -129.5q-63 -80 -99 -132t-36 -99q0 -38 24 -133h-32q-35 97 -35 148q0 76 81.5 218t81.5 217q0 57 -33 90t-91 33
q-38 0 -69 -17q-26 -15 -56 -40v45zM389 334l57 58q11 10 20 10q10 0 22 -11l56 -60q9 -11 9 -20q0 -11 -10 -22l-56 -62q-14 -14 -21 -14q-11 0 -20 10l-61 71q-7 9 -7 18q0 10 11 22z" />
    <glyph glyph-name=".notdef" horiz-adv-x="1024" 
d="M100 0v1434h824v-1434h-824zM150 50h724v1334h-724v-1334zM325 1148q31 28 58 43q53 30 112 30q92 0 148 -47.5t56 -127.5q0 -49 -23 -98.5t-87 -129.5q-63 -80 -99 -132t-36 -99q0 -38 24 -133h-32q-35 97 -35 148q0 76 81.5 218t81.5 217q0 57 -33 90t-91 33
q-38 0 -69 -17q-26 -15 -56 -40v45zM389 334l57 58q11 10 20 10q10 0 22 -11l56 -60q9 -11 9 -20q0 -11 -10 -22l-56 -62q-14 -14 -21 -14q-11 0 -20 10l-61 71q-7 9 -7 18q0 10 11 22z" />
    <glyph glyph-name=".null" horiz-adv-x="0" 
 />
    <glyph glyph-name="nonmarkingreturn" horiz-adv-x="508" 
 />
    <glyph glyph-name="space" unicode=" " horiz-adv-x="508" 
 />
    <glyph glyph-name="space" unicode="&#xa0;" horiz-adv-x="508" 
 />
    <glyph glyph-name="exclam" unicode="!" horiz-adv-x="917" 
d="M1349 2405q-329 -1288 -474 -1799q-313 -12 -616 -5q-4 -20 -59 -3q80 570 320 1799q463 31 829 8zM99 194q64 203 261.5 282.5t324.5 2.5q155 -123 77 -320q-71 -154 -201 -221q-145 -75 -329 -24t-133 280z" />
    <glyph glyph-name="quotedbl" unicode="&#x22;" horiz-adv-x="1612" 
d="M1023 2823q308 -12 259 -363q-96 -449 -620 -814q-62 64 -91 141q169 228 193 434q-175 2 -196.5 152.5t83 300t372.5 149.5zM1795 2823q308 -12 259 -363q-96 -449 -620 -814q-62 64 -91 141q169 228 193 434q-175 2 -196.5 152.5t83 300t372.5 149.5z" />
    <glyph glyph-name="numbersign" unicode="#" horiz-adv-x="2438" 
d="M732 985q50 163 98 329q-361 4 -511 6q46 205 143 457q212 2 508 5q101 337 148 492q224 24 461 13q-56 -198 -142 -503q175 3 332 3q100 334 146 487q224 24 461 13q-56 -196 -141 -497q341 0 503 -1q-64 -254 -156 -483q-199 1 -482 2q-45 -156 -90 -315q357 0 531 -1
q-65 -254 -157 -483q-217 1 -514 2q-94 -326 -145 -497q-273 -23 -484 -8q60 204 150 508q-165 2 -316 2q-96 -330 -147 -502q-273 -23 -484 -8q61 206 151 514q-337 1 -474 3q46 205 142 457q192 2 469 5zM1303 1311q-45 -159 -91 -323q167 2 320 4q47 157 94 317
q-169 2 -323 2z" />
    <glyph glyph-name="dollar" unicode="$" horiz-adv-x="2118" 
d="M1370 2478l58 299q261 11 517 9q-23 -102 -66 -306q152 -24 316 -75l-203 -674q-771 142 -793 -153q3 -142 179.5 -129.5t412.5 -34t325 -211.5q111 -311 28 -568q-194 -539 -756 -758q-50 -236 -77 -368q-246 -15 -510 5l49 245q-333 -29 -531 63q90 328 187 698
q206 -156 678 -50q250 77 245 235q1 129 -257 71q-376 -20 -556.5 151t-189.5 337q-45 482 282 852q283 292 662 362z" />
    <glyph glyph-name="percent" unicode="%" horiz-adv-x="2257" 
d="M2508 2380q-804 -1282 -1596 -2645q-290 65 -534 156q-18 -35 -54 9q465 855 1511 2665q400 -82 673 -185zM700 2247q82 75 211 119q117 34 219 25q96 -10 171 -62q120 -113 84 -285q-76 -409 -514 -449q-73 -2 -143 18q-114 37 -167 128q-124 267 139 506zM964 2045
q-49 -21 -61 -67q-9 -32 27 -49q27 -13 61 11q29 22 35 60q8 40 -23 51q-15 4 -39 -6zM1579 663q82 75 211 119q118 34 220 25q96 -10 171 -62q120 -113 83 -285q-76 -409 -513 -449q-74 -2 -144 18q-114 37 -166 128q-125 267 138 506zM1843 461q-48 -21 -61 -67
q-9 -32 28 -49q26 -13 60 11q30 22 36 60q7 40 -23 51q-16 4 -40 -6z" />
    <glyph glyph-name="ampersand" unicode="&#x26;" horiz-adv-x="2387" 
d="M1704 2396q226 -45 343 -255q94 -205 68 -358q-61 -432 -550 -613q105 -159 235 -262q85 115 152 187q147 -68 342 -248l-185 -254q131 -124 262 -288q-181 -181 -403 -331q-45 64 -214 234q-163 -114 -409 -262q-397 -225 -715 -162q-486 66 -488 632q40 397 301 626
q158 147 328 257q-190 286 -54 614q110 267 492 443q303 101 495 40zM1311 1481q372 156 162 352q-222 64 -270 -150q-20 -124 108 -202zM715 551q-36 -191 156 -212q195 -33 503 223q-191 165 -326 308q-339 -119 -333 -319z" />
    <glyph glyph-name="quotesingle" unicode="'" horiz-adv-x="840" 
d="M1023 2823q308 -12 259 -363q-96 -449 -620 -814q-62 64 -91 141q169 228 193 434q-175 2 -196.5 152.5t83 300t372.5 149.5z" />
    <glyph glyph-name="parenleft" unicode="(" horiz-adv-x="1838" 
d="M916 -806q-297 133 -493 394q-148 206 -198 434q-103 506 72 1074q60 192 198 447q90 155 200 292q346 412 728 625q474 250 901 283l-120 -485q-1008 -203 -1278 -1150q-321 -1410 706 -1568l-67 -447q-398 1 -649 101z" />
    <glyph glyph-name="parenright" unicode=")" horiz-adv-x="1838" 
d="M-183 -907l123 447q1095 158 1371 1568q135 947 -787 1150l86 485q413 -33 781 -283q290 -213 462 -625q51 -137 76 -292q30 -255 8 -447q-67 -568 -386 -1074q-146 -228 -382 -434q-306 -261 -661 -394q-293 -100 -691 -101z" />
    <glyph glyph-name="asterisk" unicode="*" horiz-adv-x="1401" 
d="M1178 1665q-59 -280 -83 -387q-134 -11 -311 4q22 111 82 391q-268 -165 -372 -229q-64 103 -122 258q151 95 436 270q-210 175 -321 270q124 154 231 258q77 -64 275 -229q60 282 84 392l304 10q-21 -113 -78 -397q264 160 366 222l132 -241q-161 -102 -454 -285
q215 -183 333 -285l-233 -241q-76 60 -269 219z" />
    <glyph glyph-name="plus" unicode="+" horiz-adv-x="1497" 
d="M1287 1409q270 1 416 0q-39 -246 -124 -566q-145 -2 -407 -3q-55 -267 -86 -412q-251 -12 -566 5q29 146 83 407q-260 1 -402 3l105 551q151 4 417 9q57 262 90 409l553 10q-27 -148 -79 -413z" />
    <glyph glyph-name="comma" unicode="," horiz-adv-x="840" 
d="M539 543q308 -12 259 -363q-96 -449 -620 -814q-62 64 -91 141q169 228 193 434q-175 2 -196.5 152.5t83 300t372.5 149.5z" />
    <glyph glyph-name="hyphen" unicode="-" horiz-adv-x="1497" 
d="M1681 1409q-37 -246 -118 -566q-658 -10 -1308 0l100 551q692 19 1326 15z" />
    <glyph glyph-name="hyphen" unicode="&#xad;" horiz-adv-x="1497" 
d="M1681 1409q-37 -246 -118 -566q-658 -10 -1308 0l100 551q692 19 1326 15z" />
    <glyph glyph-name="period" unicode="." horiz-adv-x="798" 
d="M54 194q64 203 261.5 282.5t324.5 2.5q154 -123 77 -320q-72 -154 -202 -221q-145 -75 -328.5 -24t-132.5 280z" />
    <glyph glyph-name="slash" unicode="/" horiz-adv-x="2138" 
d="M2654 2807q-1132 -1854 -2272 -3825q-270 94 -538 239q684 1236 2194 3853q373 -119 616 -267z" />
    <glyph glyph-name="zero" unicode="0" 
d="M480 113q-225 213 -261 585q-12 228 42 453q404 1325 1663 1291q519 -2 762 -432q104 -255 70 -557q-40 -328 -220 -670q-217 -372 -490 -574q-866 -649 -1566 -96zM1955 1339q-32 262 -323 268q-246 14 -437 -156q-217 -219 -171 -442q65 -279 325 -273q313 25 513 314
q99 152 93 289z" />
    <glyph glyph-name="one" unicode="1" horiz-adv-x="1609" 
d="M2040 2430q-292 -1366 -545 -2589q-467 -46 -862 3q141 773 313 1518l-366 -196q-196 161 -214 509l837 759q398 11 837 -4z" />
    <glyph glyph-name="two" unicode="2" horiz-adv-x="2080" 
d="M1611 2434q238 21 493 -99q303 -203 215 -662q-123 -592 -947 -1148q487 6 727 -11q-84 -443 -229 -690q-841 -16 -1830 -3q29 267 132 642q899 419 1208 824q74 107 95 213q56 292 -275 209q-221 -100 -359 -493q-396 118 -500 230q11 165 183 431q337 533 1087 557z
" />
    <glyph glyph-name="three" unicode="3" horiz-adv-x="2050" 
d="M2139 1648l-428 -345q347 -264 399 -473q49 -568 -433 -871q-414 -224 -1022 -168q-469 48 -632 270q167 254 392 532q791 -438 906 30q-7 333 -492 285q4 259 81 469l351 253q189 200 -160 202q-288 -12 -472 -138q-96 187 -142 484q789 448 1437 206q438 -162 371 -467
q-29 -150 -156 -269z" />
    <glyph glyph-name="four" unicode="4" horiz-adv-x="1973" 
d="M1588 2485q273 -172 514 -436q-399 -403 -916 -844q416 -44 944 -5q-55 -347 -140 -679l-449 -3q-105 -416 -143 -656q-411 -32 -720 -15q86 438 147 657q-486 1 -693 7q52 305 146 674q691 644 1310 1300z" />
    <glyph glyph-name="five" unicode="5" horiz-adv-x="2044" 
d="M1092 1890l-66 -318q151 96 434 71q532 -57 647 -556q126 -717 -605 -1133q-391 -175 -817 -98q-454 78 -643 293q96 248 339 553q876 -320 995 36q40 227 -173 302q-215 66 -314 -100l-583 1q158 809 331 1518q834 -24 1710 -10q-41 -246 -208 -557q-588 6 -1047 -2z
" />
    <glyph glyph-name="six" unicode="6" horiz-adv-x="2050" 
d="M2422 2311q-101 -445 -178 -686q-519 224 -854 123q-258 -118 -374 -431q397 200 728 115q420 -104 409 -593q-43 -575 -490 -852q-689 -393 -1241 70q-458 555 56 1646q322 525 623 679q651 321 1321 -71zM1062 678q-49 -162 77 -236q198 -47 352 112q170 246 -48 364
q-313 32 -381 -240z" />
    <glyph glyph-name="seven" unicode="7" horiz-adv-x="2018" 
d="M2442 2475q-32 -257 -143 -640q-954 -1227 -1446 -1999q-397 -18 -737 12q631 999 1312 1929l-997 2q23 307 112 636q541 75 1899 60z" />
    <glyph glyph-name="eight" unicode="8" horiz-adv-x="2106" 
d="M1827 2474q577 -144 511 -675q-53 -346 -589 -610q446 -129 440 -564q-43 -355 -499 -634q-549 -262 -1031 -130q-320 70 -445 301q-262 513 417 1001q-245 229 -173 585q53 269 430 529q454 264 939 197zM1202 1476q201 -80 368 76q121 207 -63 276q-196 45 -341 -129
q-57 -175 36 -223zM945 403q241 -114 468 73q178 252 -41 351q-237 69 -439 -139q-97 -219 12 -285z" />
    <glyph glyph-name="nine" unicode="9" horiz-adv-x="2039" 
d="M47 58q133 424 255 645q473 -204 808 -103q257 118 374 431q-398 -200 -729 -115q-420 104 -408 593q43 575 491 852q714 368 1240 -70q458 -555 -56 -1646q-323 -525 -623 -679q-652 -321 -1352 92zM1439 1670q48 162 -78 236q-198 47 -352 -112q-170 -246 48 -364
q313 -32 382 240z" />
    <glyph glyph-name="colon" unicode=":" horiz-adv-x="798" 
d="M54 194q64 203 261.5 282.5t324.5 2.5q154 -123 77 -320q-72 -154 -202 -221q-145 -75 -328.5 -24t-132.5 280zM226 1007q65 203 262 282.5t325 2.5q154 -123 77 -320q-73 -154 -202 -221q-145 -75 -328.5 -24t-133.5 280z" />
    <glyph glyph-name="semicolon" unicode=";" horiz-adv-x="825" 
d="M253 1007q64 203 261 282.5t326 2.5q154 -123 77 -320q-73 -154 -202 -221q-145 -75 -328.5 -24t-133.5 280zM523 543q297 -12 247 -363q-96 -449 -603 -814q-60 64 -87 141q165 228 189 434q-168 2 -187.5 152.5t82.5 300t359 149.5z" />
    <glyph glyph-name="semicolon" unicode="&#x37e;" horiz-adv-x="825" 
d="M253 1007q64 203 261 282.5t326 2.5q154 -123 77 -320q-73 -154 -202 -221q-145 -75 -328.5 -24t-133.5 280zM523 543q297 -12 247 -363q-96 -449 -603 -814q-60 64 -87 141q165 228 189 434q-168 2 -187.5 152.5t82.5 300t359 149.5z" />
    <glyph glyph-name="less" unicode="&#x3c;" horiz-adv-x="2133" 
d="M2315 1234q-561 -66 -1282 -291q735 -278 1139 -366l-358 -614q-759 279 -1674 629q87 349 119 577q1402 558 2106 724q-22 -398 -50 -659z" />
    <glyph glyph-name="equal" unicode="=" horiz-adv-x="1503" 
d="M1809 1878q-39 -246 -124 -566q-693 -10 -1378 0l105 551q729 19 1397 15zM1615 993q-39 -246 -124 -566q-693 -10 -1378 0l105 551q729 19 1397 15z" />
    <glyph glyph-name="greater" unicode="&#x3e;" horiz-adv-x="2133" 
d="M142 621q561 66 1282 291q-734 278 -1138 366l355 614q762 -279 1677 -629q-89 -349 -119 -577q-1404 -558 -2107 -724q22 398 50 659z" />
    <glyph glyph-name="question" unicode="?" horiz-adv-x="2029" 
d="M1863 2478q555 -273 406 -833q-151 -474 -919 -663q-72 -296 -100 -501q-367 -4 -666 8q76 416 204 950q298 3 503 77q325 124 215 301q-233 266 -680 -288q-328 227 -424 313q659 905 1461 636zM485 139q64 197 270 273.5t343 3.5q166 -119 87 -312q-74 -149 -209 -214
q-151 -72 -345.5 -22.5t-145.5 271.5z" />
    <glyph glyph-name="at" unicode="@" horiz-adv-x="3463" 
d="M2056 1098q-29 -137 61 -177q131 -26 220 124q120 276 -33 283q-182 -25 -248 -230zM2918 437q-607 -170 -599 187q-196 -205 -460 -208q-190 0 -306 214q-101 291 -16 541q95 274 324 451q371 280 688 131q2 6 42 120q474 29 613 -170q-166 -449 -240 -667
q-5 -20 55 -71q39 55 96 150q109 164 116 423q-205 774 -1203 314q-1092 -755 -168 -1637q-70 -193 -297 -335q-1283 1388 289 2452q1228 652 1738 -357q154 -279 4 -699q-175 -593 -676 -839z" />
    <glyph glyph-name="A" unicode="A" horiz-adv-x="2351" 
d="M988 1752l-370 -41l165 505q636 262 1343 281l122 -2604q-590 -113 -729 -93l-4 544q-416 -11 -549 7q-228 -458 -431 -681q-355 110 -529 312q338 348 982 1770zM1494 1555q-139 -335 -287 -611q143 -24 291 -11q14 262 -4 622z" />
    <glyph glyph-name="B" unicode="B" horiz-adv-x="2411" 
d="M329 1394q94 467 113 638q498 359 1173 389q844 12 938 -558q75 -395 -404 -727q375 -231 310.5 -529.5t-264.5 -437.5q-107 -84 -222 -133q-508 -221 -1047 -212q-179 -1 -612 24q83 552 352 1654zM1226 1372q519 -33 551 222q26 92 -83.5 152t-391.5 -39
q-57 -158 -76 -335zM1051 403q621 -67 679 269q18 141 -155 175q-179 41 -451 -46q-51 -217 -73 -398z" />
    <glyph glyph-name="C" unicode="C" horiz-adv-x="1905" 
d="M1873 544l-144 -678q-1200 -144 -1481 606q-125 466 148 1036q596 1015 1863 867l-154 -732q-606 55 -878 -220.5t-165.5 -617t811.5 -261.5z" />
    <glyph glyph-name="D" unicode="D" horiz-adv-x="2474" 
d="M454 2087q532 348 1211 341q510 5 802 -314t159 -1025q-118 -468 -473.5 -798.5t-940 -396t-847.5 1.5q87 518 346 1734l-313 -138q-10 152 56 595zM1148 580q347 9 564 157q215 151 241 458q46 633 -588 529q-93 -533 -217 -1144z" />
    <glyph glyph-name="E" unicode="E" horiz-adv-x="2311" 
d="M1401 1727l-76 -364l673 21l-96 -520q-209 -18 -691 -33l-68 -324q501 -2 975 2q-48 -450 -102 -659q-460 -27 -1767 -17q205 998 401 1822l-260 -25l99 622q1272 276 2228 223q18 -107 -335 -721q-681 5 -981 -27z" />
    <glyph glyph-name="F" unicode="F" horiz-adv-x="2369" 
d="M2798 2469q-39 -260 -315 -726q-486 12 -1010 -29l-64 -367q284 24 658 34q-78 -262 -257 -636q-259 -5 -539 -19q-171 -669 -359 -1010q-354 26 -655 94q271 755 489 1871l-348 -36q49 302 91 607q1306 235 2309 217z" />
    <glyph glyph-name="G" unicode="G" horiz-adv-x="2380" 
d="M1357 -63q-921 -194 -1121 587q-145 769 564 1478q712 587 1785 397q-61 -443 -174 -788q-219 76 -676 38q-463 -94 -640 -403q-205 -504 110 -672q270 -52 279 55q63 311 75 516q583 -7 718 12q-82 -926 -345 -1578q-424 -9 -675 69q62 173 100 289z" />
    <glyph glyph-name="H" unicode="H" horiz-adv-x="2615" 
d="M1599 2439q-46 -261 -222 -1057l423 47q36 169 231 986q237 25 795 1q-427 -1911 -460 -2523q-421 -111 -852 -131q5 346 128 914l-425 -22q-140 -561 -306 -928q-448 62 -767 166q221 461 499 1795q-96 -6 -248 2l100 595q516 175 1104 155z" />
    <glyph glyph-name="I" unicode="I" horiz-adv-x="1377" 
d="M1521 2364q-325 -1329 -582 -2510q-376 -18 -853 -15q131 911 513 2501q305 79 922 24z" />
    <glyph glyph-name="J" unicode="J" horiz-adv-x="2350" 
d="M1421 1712q45 295 104 637q662 78 1042 86q-8 -417 -75 -1037q-124 -934 -762 -1333q-317 -199 -680 -218q-296 -10 -500 65q-189 90 -259 210q-99 164 -119 390q-3 238 91 549q152 414 306 523q303 -110 507 -276q-113 -121 -172 -322q-113 -373 191 -396
q215 10 364 145q201 106 263 1025z" />
    <glyph glyph-name="K" unicode="K" horiz-adv-x="2339" 
d="M1554 2440q-10 -130 -152 -721q479 283 845 565l338 -492q-481 -338 -926 -634q293 -494 656 -896q-382 -322 -686 -484q-180 265 -451 794q-144 -539 -193 -845q-434 53 -768 198q154 710 414 1812q-85 -3 -254 -24l124 596q488 167 1053 131z" />
    <glyph glyph-name="L" unicode="L" horiz-adv-x="2017" 
d="M1113 524q447 10 938 10q-117 -399 -236 -695q-667 -46 -1621 -15q314 1357 415 1888q-84 -3 -237 -24l125 601q493 187 1032 160q-33 -168 -416 -1925z" />
    <glyph glyph-name="M" unicode="M" horiz-adv-x="3080" 
d="M382 1614l106 634q824 238 1228 212q120 -278 214 -570q220 280 429 535q674 -12 789 -33q-224 -2016 -258 -2474q-279 -99 -848 -178q70 552 182 1344l-607 -558q-124 249 -329 567q-237 -836 -363 -1332l-774 139l498 1714h-267z" />
    <glyph glyph-name="N" unicode="N" horiz-adv-x="2634" 
d="M491 2261l1054 185q135 -414 515 -1058q65 416 209 1032q540 -1 783 -79q-296 -1387 -523 -2460q-336 -117 -593 -117q-247 519 -637 1208l-254 -1201q-584 55 -746 135q159 644 395 1741l-300 3z" />
    <glyph glyph-name="O" unicode="O" 
d="M2494 2182q224 -218 258 -598q12 -232 -43 -461q-410 -1354 -1670 -1319q-519 2 -758 441q-105 260 -69 569q42 335 224 684q218 379 494 586q867 662 1564 98zM1007 898q31 -267 322 -273q247 -14 438 159q218 224 173 451q-65 285 -324 279q-313 -26 -516 -321
q-98 -155 -93 -295z" />
    <glyph glyph-name="P" unicode="P" horiz-adv-x="2318" 
d="M452 2078q1027 504 1671 366q520 -164 450 -850q-171 -821 -948 -943q-197 -31 -375 -55q-134 -612 -217 -822q-546 40 -735 85q270 1016 372 1677l-306 -76zM1372 1183q474 15 543 278q41 180 -60 266q-101 112 -373 23q-60 -284 -110 -567z" />
    <glyph glyph-name="Q" unicode="Q" horiz-adv-x="2572" 
d="M1819 -6q-355 -147 -768 -136q-519 2 -760 432q-106 255 -72 557q41 328 222 670q216 372 491 574q865 649 1564 96q225 -213 261 -585q12 -228 -42 -453q-129 -424 -375 -749l186 -240q-235 -242 -450 -388zM1014 930q32 -262 323 -268q247 -14 438 156q217 219 171 442
q-67 279 -325 273q-313 -25 -515 -314q-97 -152 -92 -289z" />
    <glyph glyph-name="R" unicode="R" horiz-adv-x="2315" 
d="M413 1517q-26 164 51 623q846 397 1424 360q339 -12 540.5 -190t219.5 -349q26 -646 -758 -1166q250 -373 425 -629l-662 -471l-478 878q-190 -734 -313 -922q-456 72 -682 172q245 502 491 1792zM1419 1792q-59 -290 -107 -609q531 136 582 400q28 175 -131 246
q-101 34 -344 -37z" />
    <glyph glyph-name="S" unicode="S" horiz-adv-x="1963" 
d="M125 -132q140 282 295 652q205 -156 677 -50q250 77 245 235q1 129 -257 71q-376 -20 -556.5 151t-189.5 337q-45 482 282 852q616 607 1538 290l-340 -649q-685 116 -707 -179q3 -142 180 -129.5t412.5 -34t324.5 -211.5q112 -311 28 -568q-232 -647 -995 -832
q-549 -111 -937 65z" />
    <glyph glyph-name="T" unicode="T" horiz-adv-x="2299" 
d="M2728 2442q-89 -470 -248 -829q-228 25 -668 14l-380 -1895q-130 -52 -752 145l396 1749q-411 -3 -660 -19q20 393 105 758q1122 87 2207 77z" />
    <glyph glyph-name="U" unicode="U" horiz-adv-x="2538" 
d="M386 1642q33 284 110 627q681 208 1180 148q-90 -196 -256.5 -700.5t-133.5 -780.5q40 -182 195 -196q194 4 290 193q224 521 341 1486l747 -48q-47 -704 -223 -1304q-294 -953 -1046 -1215q-341 -103 -670 -23q-532 197 -471 1118q15 244 191 683z" />
    <glyph glyph-name="V" unicode="V" horiz-adv-x="2654" 
d="M432 1712q-10 123 54 526q503 202 1010 212q37 -1011 99 -1516q250 367 715 1510l769 -67q-913 -1939 -1247 -2528q-538 -39 -848 0q-191 1126 -256 1925z" />
    <glyph glyph-name="W" unicode="W" horiz-adv-x="3204" 
d="M1429 1217l546 648q111 -255 296 -617l550 1190q440 -3 811 -47q-674 -1452 -1150 -2553q-359 -19 -633 10l-157 770l-448 -769q-295 -28 -682 -12q57 977 102 1928q-77 -1 -247 -25l74 522q626 243 992 196q-5 -487 -54 -1241z" />
    <glyph glyph-name="X" unicode="X" horiz-adv-x="2575" 
d="M1189 2484q280 -511 434 -752q487 495 769 724q336 -284 512 -530q-498 -442 -946 -786l534 -713q-383 -356 -778 -633q-172 317 -418 730l-704 -740q-234 192 -509 560q230 251 861 805q-267 482 -518 783q327 286 763 552z" />
    <glyph glyph-name="Y" unicode="Y" horiz-adv-x="2499" 
d="M1573 -219q-411 -4 -768 11q113 561 277 1286q-255 308 -677 782l690 593q255 -367 526 -722q366 363 762 733q257 -275 451 -512q-397 -363 -990 -889q-152 -734 -271 -1282z" />
    <glyph glyph-name="Z" unicode="Z" horiz-adv-x="2278" 
d="M38 -154q89 432 136 653q734 727 1415 1181q-847 -35 -1195 7q13 180 237 714q896 -24 2044 4q-46 -267 -155 -754q-1015 -724 -1428 -1130q677 15 1219 11q-76 -345 -225 -679q-965 -16 -2048 -7z" />
    <glyph glyph-name="backslash" unicode="\" horiz-adv-x="2138" 
d="M1337 3074q396 -2617 556 -3853q-330 -145 -640 -239q-302 1971 -646 3825q305 148 730 267z" />
    <glyph glyph-name="asciicircum" unicode="^" horiz-adv-x="1397" 
d="M1183 2495q-178 -75 -531 -309l-111 361q392 284 747 444q281 -162 560 -444l-313 -371q-169 219 -352 319z" />
    <glyph glyph-name="underscore" unicode="_" horiz-adv-x="2288" 
d="M2125 -329q-1376 -2 -2171 4q36 232 54 303.5t84 179.5q622 26 2137 10q-43 -272 -104 -497z" />
    <glyph glyph-name="grave" unicode="`" horiz-adv-x="1074" 
d="M425 2498q121 190 294 376q300 -174 674 -453l-296 -364q-162 61 -672 441z" />
    <glyph glyph-name="a" unicode="a" horiz-adv-x="2060" 
d="M1479 2200q205 -779 470 -2343q-341 -29 -629 -88l-46 361q-268 21 -447 1q-129 -206 -225 -361q-285 66 -617 114zM1186 789q-79 -110 -129 -190q87 2 166 9q-2 56 -37 181z" />
    <glyph glyph-name="b" unicode="b" horiz-adv-x="1829" 
d="M409 1881q263 95 659 125q732 10 866 -425q67 -339 -344 -620q321 -195 265.5 -451.5t-228.5 -375.5q-92 -72 -193 -114q-440 -189 -907 -181q-154 -1 -532 22q210 1021 414 2020zM788 1166q463 -31 482 193q11 104 -92 137q-151 34 -336 -12q-36 -161 -54 -318zM639 339
q531 -56 579 226q-2 117 -133 145q-154 36 -386 -38q-41 -182 -60 -333z" />
    <glyph glyph-name="c" unicode="c" horiz-adv-x="1676" 
d="M1650 582l-162 -719q-1026 -123 -1266 517q-107 397 125 883q509 866 1592 739l-164 -799q-359 104 -631 -70t-162 -443q151 -224 668 -108z" />
    <glyph glyph-name="d" unicode="d" horiz-adv-x="1808" 
d="M422 1937q331 107 645 106q504 -18 736 -275t118 -859q-99 -395 -295 -587q-434 -423 -949 -442q-521 -33 -685 12q103 457 430 2045zM703 565q270 -1 451 114q178 118 196 356q42 453 -479 375q-56 -378 -168 -845z" />
    <glyph glyph-name="e" unicode="e" horiz-adv-x="1767" 
d="M1931 1978q-85 -376 -167 -594l-820 9l-55 -278l574 7l-89 -440q-176 -12 -573 -17l-53 -254q410 -9 816 8q-72 -426 -102 -564q-387 -3 -1481 -8q212 858 446 2117q292 12 1504 14z" />
    <glyph glyph-name="f" unicode="f" horiz-adv-x="1708" 
d="M1926 2066q-84 -515 -170 -742q-377 15 -835 -2l-48 -288q351 16 477 15q-22 -139 -140 -543q-178 -4 -439 -16q-77 -332 -137 -643q-336 -36 -630 -17q176 846 432 2175q430 64 1490 61z" />
    <glyph glyph-name="g" unicode="g" horiz-adv-x="2060" 
d="M1159 -89q-791 -167 -962 503q-124 660 484 1268q611 504 1532 341q-53 -380 -150 -676q-188 65 -580 32q-397 -80 -549 -345q-176 -433 95 -577q232 -44 239 47q54 267 64 443q501 -6 616 10q-70 -794 -313 -1493q-364 -8 -579 59q71 288 103 388z" />
    <glyph glyph-name="h" unicode="h" horiz-adv-x="1871" 
d="M-22 -150q220 882 493 2188q317 -15 618 -36q-140 -723 -172 -862l299 -19q154 695 210 918q277 5 617 -16q-154 -594 -442 -2151q-358 -9 -640 17q90 365 126 654l-293 -2q-80 -275 -125 -684q-419 -18 -691 -7z" />
    <glyph glyph-name="i" unicode="i" horiz-adv-x="1078" 
d="M1284 1995q-274 -1124 -492 -2122q-324 -16 -732 -13q110 772 433 2115q263 68 791 20z" />
    <glyph glyph-name="j" unicode="j" horiz-adv-x="2019" 
d="M1470 1987q392 60 717 68q-7 -359 -64 -885q-105 -797 -649 -1137q-271 -170 -581 -186q-253 -9 -426 55q-163 77 -223 180q-83 140 -100 333q-3 203 77 468q129 353 254 441q271 -87 446 -231q-98 -105 -147 -275q-95 -313 159 -332q181 8 307 122q238 151 230 1379z
" />
    <glyph glyph-name="k" unicode="k" horiz-adv-x="1893" 
d="M1039 1490q375 190 733 473l266 -451q-432 -303 -775 -547q157 -400 552 -617q-246 -349 -382 -569q-500 302 -615 673q-119 -449 -148 -607q-386 -60 -691 -2q170 808 502 2166q385 63 660 44q-8 -113 -102 -563z" />
    <glyph glyph-name="l" unicode="l" horiz-adv-x="1455" 
d="M1103 2023l-341 -1599q376 9 695 18q-61 -343 -164 -598q-506 -48 -1321 -22q399 1716 486 2181q372 28 645 20z" />
    <glyph glyph-name="m" unicode="m" horiz-adv-x="2493" 
d="M942 2205q429 -492 575 -736q250 234 852 724q20 -2022 21 -2300q-332 -70 -692 -85q37 296 46 1047l-453 -395q-140 206 -269 398q-319 -784 -384 -1035l-661 23q477 1148 965 2359z" />
    <glyph glyph-name="n" unicode="n" horiz-adv-x="2140" 
d="M506 2329q602 -614 973 -1154q70 348 158 831q370 13 684 47q-256 -1269 -566 -2529q-644 964 -967 1375l-203 -1073q-300 12 -612 -7q152 626 533 2510z" />
    <glyph glyph-name="o" unicode="o" horiz-adv-x="2130" 
d="M2014 1837q284 -352 157 -915q-240 -907 -901 -1087t-924.5 120t-172.5 701q38 289 202.5 603.5t387.5 493.5q770 551 1251 84zM814 731q12 -264 242 -269q194 -12 356 172q173 190 142 384q-47 243 -251 238q-248 -22 -411 -274q-81 -132 -78 -251z" />
    <glyph glyph-name="p" unicode="p" horiz-adv-x="1707" 
d="M426 1956q543 173 1092 56q444 -140 388 -682q-146 -701 -809 -805q-168 -27 -315 -46q-82 -408 -151 -647q-351 -14 -656 -19q220 906 451 2143zM864 980q401 22 475 237q35 151 -49 223q-147 98 -334 16q-78 -230 -92 -476z" />
    <glyph glyph-name="q" unicode="q" horiz-adv-x="2319" 
d="M1544 -39q-300 -124 -653 -115q-442 2 -648 369q-91 217 -61 475q34 279 188 571q185 317 419 489q738 554 1335 83q191 -183 223 -500q10 -194 -36 -386q-110 -362 -318 -636l159 -204q-204 -209 -389 -335zM865 762q26 -220 271 -225q209 -12 369 131q182 184 145 372
q-57 234 -274 230q-264 -21 -433 -265q-82 -128 -78 -243z" />
    <glyph glyph-name="r" unicode="r" horiz-adv-x="1958" 
d="M749 499q-119 -549 -148 -686q-435 -23 -623 9q59 306 450 2136q448 121 937 79q749 -90 616 -738q-100 -430 -527 -609q139 -66 88 -334q-58 -232 313 -26l-120 -565q-968 -381 -811 413q57 325 -175 321zM958 1440q-62 -218 -107 -484q448 123 490 325q28 146 -107 166
q-84 31 -276 -7z" />
    <glyph glyph-name="s" unicode="s" horiz-adv-x="1702" 
d="M199 -188q77 282 162 600q176 -134 581 -43q215 66 211 202q1 111 -221 61q-323 -17 -478 130t-164 289q-37 415 243 733q480 495 1205 270l-176 -579q-587 100 -606 -154q2 -122 153.5 -111t354 -29t279.5 -182q97 -267 25 -488q-201 -556 -855 -715q-473 -96 -714 16z
" />
    <glyph glyph-name="t" unicode="t" horiz-adv-x="1867" 
d="M2222 2047q-105 -397 -197 -701q-216 23 -537 -4l-308 -1485q-329 -2 -655 -11l325 1504q-374 2 -528 -6q64 346 124 708q868 -19 1776 -5z" />
    <glyph glyph-name="u" unicode="u" horiz-adv-x="2038" 
d="M1220 2035q-43 -106 -167.5 -568.5t-96.5 -696.5q34 -153 163 -164q162 3 242 161q190 442 290 1266l642 -42q-40 -601 -190 -1112q-250 -812 -892 -1035q-291 -88 -572 -20q-454 168 -402 953q66 604 369 1243q306 24 614 15z" />
    <glyph glyph-name="v" unicode="v" horiz-adv-x="2136" 
d="M430 1975q285 61 682 93q2 -916 69 -1501q438 870 673 1483l628 -48q-823 -1635 -1063 -2155q-462 -34 -728 -1q-161 960 -261 2129z" />
    <glyph glyph-name="w" unicode="w" horiz-adv-x="2561" 
d="M2895 1948q-630 -1182 -1310 -2255q-60 141 -320 861q-373 -400 -804 -871q-86 1169 -28 2308q160 49 647 76q-7 -321 27 -917l414 421q97 -222 240 -461l572 936q286 -40 562 -98z" />
    <glyph glyph-name="x" unicode="x" horiz-adv-x="2212" 
d="M1013 2090q240 -438 368 -639q411 417 653 614q288 -243 440 -455q-426 -378 -804 -669l453 -605q-328 -306 -667 -544q-149 272 -355 620l-598 -628q-202 165 -437 480q198 217 732 686q-226 407 -441 665q281 246 656 475z" />
    <glyph glyph-name="y" unicode="y" horiz-adv-x="2053" 
d="M714 -281q-281 140 -527 261q329 346 688 826q-268 419 -524 799l647 433q134 -266 352 -621q261 357 467 596q266 -195 497 -408q-1135 -1403 -1600 -1886z" />
    <glyph glyph-name="z" unicode="z" horiz-adv-x="2065" 
d="M23 -138q745 1137 990 1462q-449 -12 -715 -3q77 396 173 664q867 -11 1910 11q-811 -1106 -1141 -1524q356 17 818 20q-36 -320 -119 -615q-930 -22 -1916 -15z" />
    <glyph glyph-name="bar" unicode="|" horiz-adv-x="919" 
d="M-174 -866q514 2151 862 3856q377 25 784 8q-399 -1798 -814 -3849q-468 -51 -832 -15z" />
    <glyph glyph-name="asciitilde" unicode="~" horiz-adv-x="1563" 
d="M2048 3100q0 -446 -234 -606q-150 -94 -352 -81q-225 16 -309 201q-54 168 -144 93q-81 -95 45 -260q-46 -66 -370 -23q-103 260 93 521q146 177 383 182q259 -4 314 -180q43 -181 141 -170q38 5 64 61q30 112 -38 260q58 70 407 2z" />
    <glyph glyph-name="exclamdown" unicode="&#xa1;" horiz-adv-x="917" 
d="M88 -97q329 1288 474 1799q313 12 616 5q4 20 59 3q-80 -570 -320 -1799q-463 -31 -829 -8zM1338 2114q-64 -203 -261.5 -282.5t-324.5 -2.5q-155 123 -77 320q71 154 201 221q145 75 329 24t133 -280z" />
    <glyph glyph-name="brokenbar" unicode="&#xa6;" horiz-adv-x="888" 
d="M237 994q175 808 318 1516q376 20 784 7q-165 -735 -330 -1523h-772zM960 764q-152 -720 -305 -1484q-465 -39 -801 -16q180 789 334 1500h772z" />
    <glyph glyph-name="section" unicode="&#xa7;" horiz-adv-x="1748" 
d="M346 614q-104 129 -104 250q-11 419 288 729q4 4 8 7q-50 89 -51 173q-11 419 287 729q509 482 1212 231l-210 -577q-576 121 -612 -134q-4 -94 84 -113q70 2 141 -4q122 -6 271 -41q199 -47 266 -193q78 -272 -8 -491q-94 -224 -258 -379q12 -18 21 -38q78 -272 -7 -492
q-234 -552 -894 -690q-475 -80 -707 40q95 281 198 598q167 -140 575 -63q217 59 222 196q8 112 -215 69q-306 -34 -507 193zM935 1043q73 6 156 22q290 90 221 217q-353 63 -392 -169q-2 -43 15 -70z" />
    <glyph glyph-name="dieresis" unicode="&#xa8;" horiz-adv-x="1539" 
d="M550 2396q-4 101 69 214q151 218 387 237q190 4 240 -204q34 -165 -128 -328q-142 -128 -328 -116q-217 4 -240 197zM1261 2396q-4 101 69 214q151 218 387 237q190 4 240 -204q34 -165 -128 -328q-142 -128 -328 -116q-217 4 -240 197z" />
    <glyph glyph-name="copyright" unicode="&#xa9;" horiz-adv-x="2632" 
d="M502 134q-236 224 -272 608q-13 232 42 463q414 1356 1703 1322q539 -2 792 -451q109 -266 74 -577q-41 -332 -224 -680q-222 -379 -504 -588q-889 -666 -1611 -97zM2142 1894q-338 315 -832 44q-445 -225 -571 -641q-117 -508 208 -763q431 -318 843 -70
q510 343 520 950q-8 304 -168 480zM1825 1090l-124 -546q-697 -83 -852 331q-69 259 80 571q329 559 1063 473l-124 -596q-254 74 -382 -7.5t-81 -197.5q73 -107 420 -28z" />
    <glyph glyph-name="registered" unicode="&#xae;" horiz-adv-x="2632" 
d="M502 134q-236 224 -272 608q-13 232 42 463q414 1356 1703 1322q539 -2 792 -451q109 -266 74 -577q-41 -332 -224 -680q-222 -379 -504 -588q-889 -666 -1611 -97zM814 1307q-163 -626 253 -914q343 -201 867 186q401 308 430 818q-9 414 -394 587q-419 214 -850 -158
q-211 -203 -306 -519zM1030 1395q69 250 114 424q383 86 653 63q144 -20 248 -100q110 -86 128 -189q13 -304 -348 -530q74 -153 194 -344l-405 -161l-151 272q-18 -82 -51 -236q-222 -1 -432 17q42 201 184 803zM1603 1471q-22 -75 -34 -151l34 10q104 46 116 98
q6 34 -30 40q-37 13 -86 3z" />
    <glyph glyph-name="degree" unicode="&#xb0;" horiz-adv-x="863" 
d="M1171 2468q68 -64 79 -181q4 -72 -12 -143q-128 -421 -528 -410q-160 1 -235 133q-32 79 -22 174q14 105 72 216q68 117 155 181q272 204 491 30zM687 2071q13 -101 120 -103q85 -6 156 57q80 80 62 164q-25 102 -124 99q-110 -8 -179 -109q-37 -54 -35 -108z" />
    <glyph glyph-name="plusminus" unicode="&#xb1;" horiz-adv-x="1506" 
d="M1521 550q-39 -246 -124 -566q-693 -10 -1378 0l105 551q729 19 1397 15zM1348 1649q269 1 416 0q-39 -246 -124 -566q-146 -2 -407 -3q-56 -267 -87 -412q-250 -12 -566 5q29 146 84 407q-261 1 -402 3l105 551q151 4 417 9q56 262 90 409l553 10q-28 -148 -79 -413z
" />
    <glyph glyph-name="acute" unicode="&#xb4;" horiz-adv-x="1074" 
d="M621 2137l-141 364q492 279 866 453q94 -186 134 -376q-671 -380 -859 -441z" />
    <glyph glyph-name="mu" unicode="&#xb5;" horiz-adv-x="2008" 
d="M239 992q89 502 338 1028q306 24 614 15q-44 -106 -168 -568.5t-96 -696.5q33 -153 162 -164q163 3 242 161q190 442 290 1266l642 -42q-39 -601 -190 -1112q-250 -812 -892 -1035q-262 -80 -517 -32q-50 -239 -101 -472q-297 -16 -676 5q164 826 350 1647h2z" />
    <glyph glyph-name="cedilla" unicode="&#xb8;" horiz-adv-x="1352" 
d="M870 -274q274 -119 251 -343q-51 -337 -485 -502q-170 -46 -346 -30q-306 46 -435 418q92 57 370 195q140 -325 349 -175q105 92 -59 160q-110 43 -306 45q43 242 109 529q204 8 447 5q-37 -130 -57 -246q36 -9 162 -56z" />
    <glyph glyph-name="questiondown" unicode="&#xbf;" horiz-adv-x="2029" 
d="M604 -91q-555 274 -406 834q151 474 918 663q73 296 101 501q367 4 666 -8q-76 -416 -204 -950q-298 -3 -503 -77q-325 -124 -215 -301q233 -266 680 288q328 -227 424 -313q-660 -905 -1461 -637zM1982 2249q-64 -198 -270 -274t-343 -3q-165 119 -88 311
q75 150 210 214q151 73 345.5 23.5t145.5 -271.5z" />
    <glyph glyph-name="Agrave" unicode="&#xc0;" horiz-adv-x="2351" 
d="M1494 1555q-139 -335 -287 -611q143 -24 291 -11q14 262 -4 622zM988 1752l-370 -41l165 505q636 262 1343 281l122 -2604q-590 -113 -729 -93l-4 544q-416 -11 -549 7q-228 -458 -431 -681q-355 110 -529 312q338 348 982 1770zM1270 2972q121 190 293 376
q300 -174 674 -453l-295 -364q-162 61 -672 441z" />
    <glyph glyph-name="Aacute" unicode="&#xc1;" horiz-adv-x="2351" 
d="M1494 1555q-139 -335 -287 -611q143 -24 291 -11q14 262 -4 622zM988 1752l-370 -41l165 505q636 262 1343 281l122 -2604q-590 -113 -729 -93l-4 544q-416 -11 -549 7q-228 -458 -431 -681q-355 110 -529 312q338 348 982 1770zM1401 2547l-140 364q492 279 866 453
q93 -186 134 -376q-672 -380 -860 -441z" />
    <glyph glyph-name="Acircumflex" unicode="&#xc2;" horiz-adv-x="2351" 
d="M1494 1555q-139 -335 -287 -611q143 -24 291 -11q14 262 -4 622zM988 1752l-370 -41l165 505q636 262 1343 281l122 -2604q-590 -113 -729 -93l-4 544q-416 -11 -549 7q-228 -458 -431 -681q-355 110 -529 312q338 348 982 1770zM1742 2852q-178 -75 -531 -309l-111 361
q392 284 747 444q281 -162 560 -444l-313 -371q-169 219 -352 319z" />
    <glyph glyph-name="Atilde" unicode="&#xc3;" horiz-adv-x="2328" 
d="M2369 3225q-1 -446 -235 -606q-150 -94 -351 -81q-226 16 -310 201q-54 168 -144 93q-81 -95 45 -260q-46 -66 -370 -23q-103 260 94 521q145 177 383 182q259 -4 313 -180q44 -181 141 -170q38 5 64 61q30 112 -38 260q58 70 408 2zM988 1752l-370 -41l165 505
q636 262 1343 281l122 -2604q-590 -113 -729 -93l-4 544q-416 -11 -549 7q-228 -458 -431 -681q-355 110 -529 312q338 348 982 1770zM1494 1555q-139 -335 -287 -611q143 -24 291 -11q14 262 -4 622z" />
    <glyph glyph-name="Adieresis" unicode="&#xc4;" horiz-adv-x="2351" 
d="M1494 1555q-139 -335 -287 -611q143 -24 291 -11q14 262 -4 622zM988 1752l-370 -41l165 505q636 262 1343 281l122 -2604q-590 -113 -729 -93l-4 544q-416 -11 -549 7q-228 -458 -431 -681q-355 110 -529 312q338 348 982 1770zM1741 2762q-4 101 69 214
q152 218 388 237q190 4 239 -204q34 -165 -127 -328q-143 -128 -329 -116q-217 4 -240 197zM1030 2762q-4 101 69 214q152 218 388 237q190 4 239 -204q34 -165 -127 -328q-143 -128 -329 -116q-217 4 -240 197z" />
    <glyph glyph-name="Aring" unicode="&#xc5;" horiz-adv-x="2351" 
d="M1494 1555q-139 -335 -287 -611q143 -24 291 -11q14 262 -4 622zM1776 2977q-49 -21 -62 -67q-8 -32 28 -49q26 -13 60 11q30 22 36 60q8 40 -23 51q-15 4 -39 -6zM988 1752l-370 -41l165 505q636 262 1343 281l122 -2604q-590 -113 -729 -93l-4 544q-416 -11 -549 7
q-228 -458 -431 -681q-355 110 -529 312q338 348 982 1770zM1512 3179q81 75 211 119q117 34 219 25q96 -10 171 -62q120 -113 83 -285q-76 -409 -513 -449q-73 -2 -143 18q-114 37 -167 128q-124 267 139 506z" />
    <glyph glyph-name="AE" unicode="&#xc6;" horiz-adv-x="3452" 
d="M1472 1555q-183 -325 -309 -641q165 6 313 19q30 267 -4 622zM1500 -185l-3 549q-296 25 -544 2q-215 -396 -279 -537q-323 53 -682 85l1004 1904l-272 20l275 583q608 -30 1191 -22t1673 30q-126 -423 -184 -706l-992 -7l-61 -343l694 21l-95 -520q-210 -18 -692 -33
l-60 -314q499 -2 984 28q-83 -444 -109 -669q-415 -11 -1079.5 -32.5t-768.5 -38.5z" />
    <glyph glyph-name="Ccedilla" unicode="&#xc7;" horiz-adv-x="1979" 
d="M922 -72q-441 154 -588 544q-125 466 148 1036q596 1015 1863 867l-191 -931q-420 122 -742.5 -84.5t-191.5 -526.5q179 -266 784 -130l-189 -837q-208 -25 -468 -15q-4 -19 -8 -49q35 -9 161 -56q274 -119 251 -343q-51 -337 -485 -502q-170 -46 -345 -30
q-307 46 -436 418q93 57 371 195q140 -325 349 -175q103 92 -59 160q-110 43 -308 45q39 211 84 414z" />
    <glyph glyph-name="Egrave" unicode="&#xc8;" horiz-adv-x="2311" 
d="M1401 1727l-76 -364l673 21l-96 -520q-209 -18 -691 -33l-68 -324q501 -2 975 2q-48 -450 -102 -659q-460 -27 -1767 -17q205 998 401 1822l-260 -25l99 622q1444 260 2228 223q18 -107 -315 -705q-706 0 -1001 -43zM1198 2972q122 190 294 376q300 -174 674 -453
l-296 -364q-162 61 -672 441z" />
    <glyph glyph-name="Eacute" unicode="&#xc9;" horiz-adv-x="2311" 
d="M1401 1727l-76 -364l673 21l-96 -520q-209 -18 -691 -33l-68 -324q501 -2 975 2q-48 -450 -102 -659q-460 -27 -1767 -17q205 998 401 1822l-260 -25l99 622q1444 260 2228 223q18 -107 -315 -705q-706 0 -1001 -43zM1408 2547l-141 364q493 279 867 453
q93 -186 134 -376q-672 -380 -860 -441z" />
    <glyph glyph-name="Ecircumflex" unicode="&#xca;" horiz-adv-x="2311" 
d="M1401 1727l-76 -364l673 21l-96 -520q-209 -18 -691 -33l-68 -324q501 -2 975 2q-48 -450 -102 -659q-460 -27 -1767 -17q205 998 401 1822l-260 -25l99 622q1444 260 2228 223q18 -107 -315 -705q-706 0 -1001 -43zM1794 2852q-178 -75 -531 -309l-111 361
q392 284 747 444q281 -162 560 -444l-313 -371q-170 219 -352 319z" />
    <glyph glyph-name="Edieresis" unicode="&#xcb;" horiz-adv-x="2311" 
d="M1401 1727l-76 -364l673 21l-96 -520q-209 -18 -691 -33l-68 -324q501 -2 975 2q-48 -450 -102 -659q-460 -27 -1767 -17q205 998 401 1822l-260 -25l99 622q1444 260 2228 223q18 -107 -315 -705q-706 0 -1001 -43zM1770 2730q-4 101 69 214q152 218 388 237
q189 4 239 -204q34 -165 -127 -328q-143 -128 -329 -116q-217 4 -240 197zM1059 2730q-4 101 69 214q152 218 388 237q189 4 239 -204q34 -165 -127 -328q-143 -128 -329 -116q-217 4 -240 197z" />
    <glyph glyph-name="Igrave" unicode="&#xcc;" horiz-adv-x="1204" 
d="M1486 2364q-325 -1329 -582 -2510q-376 -18 -853 -15q131 911 513 2501q305 79 922 24zM666 2961q121 190 294 376q300 -174 673 -453l-295 -364q-162 61 -672 441z" />
    <glyph glyph-name="Iacute" unicode="&#xcd;" horiz-adv-x="1208" 
d="M1474 2364q-325 -1329 -582 -2510q-376 -18 -853 -15q131 911 513 2501q305 79 922 24zM775 2536l-140 364q492 279 866 453q93 -186 134 -376q-672 -380 -860 -441z" />
    <glyph glyph-name="Icircumflex" unicode="&#xce;" horiz-adv-x="1397" 
d="M1634 2364q-325 -1329 -582 -2510q-376 -18 -853 -15q131 911 513 2501q305 79 922 24zM1265 2832q-178 -75 -530 -309l-112 361q393 284 748 444q280 -162 559 -444l-313 -371q-169 219 -352 319z" />
    <glyph glyph-name="Idieresis" unicode="&#xcf;" horiz-adv-x="1539" 
d="M1597 2364q-325 -1329 -582 -2510q-376 -18 -853 -15q131 911 513 2501q305 79 922 24zM1300 2730q-4 101 69 214q151 218 387 237q190 4 240 -204q34 -165 -128 -328q-142 -128 -328 -116q-218 4 -240 197zM589 2730q-4 101 69 214q151 218 387 237q190 4 240 -204
q34 -165 -128 -328q-142 -128 -328 -116q-218 4 -240 197z" />
    <glyph glyph-name="Ntilde" unicode="&#xd1;" horiz-adv-x="2555" 
d="M491 2261l1054 185q135 -414 515 -1058q65 416 209 1032q540 -1 783 -79q-296 -1387 -523 -2460q-336 -117 -593 -117q-247 519 -637 1208l-254 -1201q-584 55 -746 135q159 644 395 1741l-300 3zM2645 3249q-1 -446 -235 -606q-150 -94 -351 -81q-226 16 -310 201
q-54 168 -144 93q-81 -95 45 -260q-46 -66 -370 -23q-103 260 94 521q145 177 382 182q259 -4 314 -180q44 -181 141 -170q38 5 64 61q30 112 -38 260q58 70 408 2z" />
    <glyph glyph-name="Ograve" unicode="&#xd2;" 
d="M1007 898q31 -267 322 -273q247 -14 438 159q218 224 173 451q-65 285 -324 279q-313 -26 -516 -321q-98 -155 -93 -295zM2494 2182q224 -218 258 -598q12 -232 -43 -461q-410 -1354 -1670 -1319q-519 2 -758 441q-105 260 -69 569q42 335 224 684q218 379 494 586
q867 662 1564 98zM1373 2972q122 190 294 376q300 -174 674 -453l-295 -364q-162 61 -673 441z" />
    <glyph glyph-name="Oacute" unicode="&#xd3;" 
d="M1007 898q31 -267 322 -273q247 -14 438 159q218 224 173 451q-65 285 -324 279q-313 -26 -516 -321q-98 -155 -93 -295zM2494 2182q224 -218 258 -598q12 -232 -43 -461q-410 -1354 -1670 -1319q-519 2 -758 441q-105 260 -69 569q42 335 224 684q218 379 494 586
q867 662 1564 98zM1584 2547l-141 364q493 279 867 453q93 -186 134 -376q-672 -380 -860 -441z" />
    <glyph glyph-name="Ocircumflex" unicode="&#xd4;" 
d="M1007 898q31 -267 322 -273q247 -14 438 159q218 224 173 451q-65 285 -324 279q-313 -26 -516 -321q-98 -155 -93 -295zM2494 2182q224 -218 258 -598q12 -232 -43 -461q-410 -1354 -1670 -1319q-519 2 -758 441q-105 260 -69 569q42 335 224 684q218 379 494 586
q867 662 1564 98zM1896 2857q-178 -75 -531 -309l-111 361q392 284 747 444q281 -162 560 -444l-313 -371q-169 219 -352 319z" />
    <glyph glyph-name="Otilde" unicode="&#xd5;" 
d="M2516 3250q0 -446 -234 -606q-150 -94 -352 -81q-225 16 -309 201q-54 168 -144 93q-81 -95 45 -260q-46 -66 -370 -23q-103 260 94 521q145 177 382 182q259 -4 314 -180q43 -181 141 -170q38 5 64 61q30 112 -38 260q58 70 407 2zM2494 2182q224 -218 258 -598
q12 -232 -43 -461q-410 -1354 -1670 -1319q-519 2 -758 441q-105 260 -69 569q42 335 224 684q218 379 494 586q867 662 1564 98zM1007 898q31 -267 322 -273q247 -14 438 159q218 224 173 451q-65 285 -324 279q-313 -26 -516 -321q-98 -155 -93 -295z" />
    <glyph glyph-name="Odieresis" unicode="&#xd6;" 
d="M1007 898q31 -267 322 -273q247 -14 438 159q218 224 173 451q-65 285 -324 279q-313 -26 -516 -321q-98 -155 -93 -295zM2494 2182q224 -218 258 -598q12 -232 -43 -461q-410 -1354 -1670 -1319q-519 2 -758 441q-105 260 -69 569q42 335 224 684q218 379 494 586
q867 662 1564 98zM1892 2751q-3 101 70 214q151 218 387 237q190 4 240 -204q34 -165 -128 -328q-142 -128 -328 -116q-218 4 -241 197zM1181 2751q-3 101 70 214q151 218 387 237q190 4 240 -204q34 -165 -128 -328q-142 -128 -328 -116q-218 4 -241 197z" />
    <glyph glyph-name="multiply" unicode="&#xd7;" horiz-adv-x="2066" 
d="M980 2173q222 -404 353 -610q404 411 622 588q264 -223 400 -414q-393 -348 -765 -633l432 -577q-299 -279 -606 -494q-134 246 -340 592l-572 -601q-181 148 -396 438q178 194 695 648q-221 398 -418 633q254 222 595 430z" />
    <glyph glyph-name="Oslash" unicode="&#xd8;" 
d="M1462 1483q-211 -71 -362 -290q-98 -155 -93 -295q9 -81 43 -138q189 332 412 723zM1529 647q128 38 238 137q218 224 173 451q-8 38 -21 70q-195 -326 -390 -658zM2463 2207q16 -12 31 -25q224 -218 258 -598q12 -232 -43 -461q-410 -1354 -1670 -1319h-4l-172 -296
q-208 72 -414 184q60 109 128 231q-180 110 -296 322q-105 260 -69 569q42 335 224 684q218 379 494 586q573 438 1073 339q66 116 134 234q288 -91 475 -206q-75 -122 -149 -244z" />
    <glyph glyph-name="Ugrave" unicode="&#xd9;" horiz-adv-x="2538" 
d="M386 1642q33 284 110 627q681 208 1180 148q-90 -196 -256.5 -700.5t-133.5 -780.5q40 -182 195 -196q194 4 290 193q224 521 341 1486l747 -48q-47 -704 -223 -1304q-294 -953 -1046 -1215q-341 -103 -670 -23q-532 197 -471 1118q15 244 191 683zM1334 2972
q121 190 294 376q300 -174 673 -453l-295 -364q-162 61 -672 441z" />
    <glyph glyph-name="Uacute" unicode="&#xda;" horiz-adv-x="2538" 
d="M386 1642q33 284 110 627q681 208 1180 148q-90 -196 -256.5 -700.5t-133.5 -780.5q40 -182 195 -196q194 4 290 193q224 521 341 1486l747 -48q-47 -704 -223 -1304q-294 -953 -1046 -1215q-341 -103 -670 -23q-532 197 -471 1118q15 244 191 683zM1545 2547l-140 364
q492 279 866 453q93 -186 134 -376q-672 -380 -860 -441z" />
    <glyph glyph-name="Ucircumflex" unicode="&#xdb;" horiz-adv-x="2538" 
d="M386 1642q33 284 110 627q681 208 1180 148q-90 -196 -256.5 -700.5t-133.5 -780.5q40 -182 195 -196q194 4 290 193q224 521 341 1486l747 -48q-47 -704 -223 -1304q-294 -953 -1046 -1215q-341 -103 -670 -23q-532 197 -471 1118q15 244 191 683zM1930 2852
q-178 -75 -530 -309l-112 361q393 284 748 444q280 -162 559 -444l-313 -371q-169 219 -352 319z" />
    <glyph glyph-name="Udieresis" unicode="&#xdc;" horiz-adv-x="2538" 
d="M386 1642q33 284 110 627q681 208 1180 148q-90 -196 -256.5 -700.5t-133.5 -780.5q40 -182 195 -196q194 4 290 193q224 521 341 1486l747 -48q-47 -704 -223 -1304q-294 -953 -1046 -1215q-341 -103 -670 -23q-532 197 -471 1118q15 244 191 683zM1906 2730
q-3 101 70 214q151 218 387 237q190 4 240 -204q34 -165 -128 -328q-142 -128 -329 -116q-217 4 -240 197zM1195 2730q-3 101 70 214q151 218 387 237q190 4 240 -204q34 -165 -128 -328q-142 -128 -329 -116q-217 4 -240 197z" />
    <glyph glyph-name="Yacute" unicode="&#xdd;" horiz-adv-x="2499" 
d="M1573 -219q-411 -4 -768 11q113 561 277 1286q-255 308 -677 782l690 593q255 -367 526 -722q366 363 762 733q257 -275 451 -512q-397 -363 -990 -889q-152 -734 -271 -1282zM1527 2547l-141 364q493 279 867 453q93 -186 134 -376q-672 -380 -860 -441z" />
    <glyph glyph-name="agrave" unicode="&#xe0;" horiz-adv-x="2060" 
d="M1186 789q-79 -110 -129 -190q87 2 166 9q-2 56 -37 181zM1479 2200q205 -779 470 -2343q-341 -29 -629 -88l-46 361q-268 21 -447 1q-129 -206 -225 -361q-285 66 -617 114zM1032 2669q121 190 294 376q300 -174 674 -453l-296 -364q-162 61 -672 441z" />
    <glyph glyph-name="aacute" unicode="&#xe1;" horiz-adv-x="2060" 
d="M1186 789q-79 -110 -129 -190q87 2 166 9q-2 56 -37 181zM1479 2200q205 -779 470 -2343q-341 -29 -629 -88l-46 361q-268 21 -447 1q-129 -206 -225 -361q-285 66 -617 114zM1148 2137l-141 364q493 279 867 453q93 -186 134 -376q-672 -380 -860 -441z" />
    <glyph glyph-name="acircumflex" unicode="&#xe2;" horiz-adv-x="2060" 
d="M1186 789q-79 -110 -129 -190q87 2 166 9q-2 56 -37 181zM1479 2200q205 -779 470 -2343q-341 -29 -629 -88l-46 361q-268 21 -447 1q-129 -206 -225 -361q-285 66 -617 114zM1549 2495q-178 -75 -531 -309l-111 361q392 284 747 444q281 -162 560 -444l-313 -371
q-169 219 -352 319z" />
    <glyph glyph-name="atilde" unicode="&#xe3;" horiz-adv-x="2060" 
d="M1186 789q-79 -110 -129 -190q87 2 166 9q-2 56 -37 181zM1479 2200q205 -779 470 -2343q-341 -29 -629 -88l-46 361q-268 21 -447 1q-129 -206 -225 -361q-285 66 -617 114zM2292 2942q-1 -446 -235 -606q-150 -94 -351 -81q-226 16 -309 201q-55 168 -145 93
q-81 -95 45 -260q-46 -66 -370 -23q-102 260 94 521q146 177 383 182q259 -4 313 -180q44 -181 141 -170q38 5 64 61q30 112 -37 260q57 70 407 2z" />
    <glyph glyph-name="adieresis" unicode="&#xe4;" horiz-adv-x="2060" 
d="M1186 789q-79 -110 -129 -190q87 2 166 9q-2 56 -37 181zM1479 2200q205 -779 470 -2343q-341 -29 -629 -88l-46 361q-268 21 -447 1q-129 -206 -225 -361q-285 66 -617 114zM1555 2396q-4 101 69 214q152 218 388 237q190 4 239 -204q34 -165 -127 -328
q-142 -128 -329 -116q-217 4 -240 197zM844 2396q-4 101 69 214q152 218 388 237q190 4 239 -204q34 -165 -127 -328q-142 -128 -329 -116q-217 4 -240 197z" />
    <glyph glyph-name="aring" unicode="&#xe5;" horiz-adv-x="2060" 
d="M1186 789q-79 -110 -129 -190q87 2 166 9q-2 56 -37 181zM1592 2669q-48 -21 -61 -67q-9 -32 27 -49q27 -13 61 11q29 22 35 60q8 40 -23 51q-15 4 -39 -6zM1479 2200q205 -779 470 -2343q-341 -29 -629 -88l-46 361q-268 21 -447 1q-129 -206 -225 -361
q-285 66 -617 114zM1328 2871q82 75 211 119q117 34 220 25q95 -10 170 -62q120 -113 84 -285q-76 -409 -514 -449q-73 -2 -143 18q-114 37 -167 128q-124 267 139 506z" />
    <glyph glyph-name="ae" unicode="&#xe6;" horiz-adv-x="2913" 
d="M1186 789q-79 -110 -129 -190q87 2 166 9q-2 56 -37 181zM1924 -145q-326 -29 -604 -86l-46 361q-268 21 -447 1q-129 -206 -225 -361q-285 66 -617 114l1494 2316q88 -335 188 -816q55 281 111 585q292 12 1504 14q-112 -355 -167 -594l-820 9l-55 -278l574 7l-88 -440
q-177 -12 -574 -17l-53 -254q410 -9 816 8q-77 -373 -102 -564q-271 -2 -889 -5z" />
    <glyph glyph-name="ccedilla" unicode="&#xe7;" horiz-adv-x="1606" 
d="M696 -84q-347 125 -474 464q-107 397 125 883q509 866 1592 739l-164 -799q-359 104 -631 -70t-162 -443q151 -224 668 -108l-162 -719q-198 -24 -367 -19q-9 -40 -15 -78q36 -9 162 -56q274 -119 251 -343q-51 -337 -485 -502q-170 -46 -346 -30q-306 46 -435 418
q92 57 371 195q139 -325 348 -175q105 92 -59 160q-110 43 -306 45q36 203 89 438z" />
    <glyph glyph-name="egrave" unicode="&#xe8;" horiz-adv-x="1665" 
d="M1931 1978q-85 -376 -167 -594l-820 9l-55 -278l574 7l-89 -440q-176 -12 -573 -17l-53 -254q410 -9 816 8q-72 -426 -102 -564q-387 -3 -1481 -8q212 858 446 2117q292 12 1504 14zM717 2498q122 190 294 376q300 -174 674 -453l-295 -364q-162 61 -673 441z" />
    <glyph glyph-name="eacute" unicode="&#xe9;" horiz-adv-x="1668" 
d="M1931 1978q-85 -376 -167 -594l-820 9l-55 -278l574 7l-89 -440q-176 -12 -573 -17l-53 -254q410 -9 816 8q-72 -426 -102 -564q-387 -3 -1481 -8q212 858 446 2117q292 12 1504 14zM913 2137l-141 364q492 279 866 453q94 -186 134 -376q-671 -380 -859 -441z" />
    <glyph glyph-name="ecircumflex" unicode="&#xea;" horiz-adv-x="1668" 
d="M1931 1978q-85 -376 -167 -594l-820 9l-55 -278l574 7l-89 -440q-176 -12 -573 -17l-53 -254q410 -9 816 8q-72 -426 -102 -564q-387 -3 -1481 -8q212 858 446 2117q292 12 1504 14zM1315 2495q-178 -75 -531 -309l-111 361q392 284 747 444q281 -162 560 -444l-313 -371
q-169 219 -352 319z" />
    <glyph glyph-name="edieresis" unicode="&#xeb;" horiz-adv-x="1657" 
d="M1931 1978q-85 -376 -167 -594l-820 9l-55 -278l574 7l-89 -440q-176 -12 -573 -17l-53 -254q410 -9 816 8q-72 -426 -102 -564q-387 -3 -1481 -8q212 858 446 2117q292 12 1504 14zM1321 2396q-4 101 69 214q152 218 388 237q190 4 239 -204q34 -165 -127 -328
q-143 -128 -329 -116q-217 4 -240 197zM610 2396q-4 101 69 214q152 218 388 237q190 4 239 -204q34 -165 -127 -328q-143 -128 -329 -116q-217 4 -240 197z" />
    <glyph glyph-name="igrave" unicode="&#xec;" horiz-adv-x="1078" 
d="M1374 1995q-274 -1124 -492 -2122q-324 -16 -732 -13q110 772 433 2115q263 68 791 20zM630 2462q113 177 274 350q279 -162 626 -421l-275 -339q-150 57 -625 410z" />
    <glyph glyph-name="iacute" unicode="&#xed;" horiz-adv-x="1116" 
d="M1320 1995q-274 -1124 -492 -2122q-324 -16 -732 -13q110 772 433 2115q263 68 791 20zM714 2137l-120 308q418 237 735 384q78 -158 113 -318q-569 -322 -728 -374z" />
    <glyph glyph-name="icircumflex" unicode="&#xee;" horiz-adv-x="1214" 
d="M1343 1995q-274 -1124 -492 -2122q-324 -16 -732 -13q110 772 433 2115q263 68 791 20zM1001 2438q-146 -62 -436 -254l-91 297q323 233 614 364q230 -133 459 -364l-257 -305q-139 180 -289 262z" />
    <glyph glyph-name="idieresis" unicode="&#xef;" horiz-adv-x="1242" 
d="M1402 1995q-274 -1124 -492 -2122q-324 -16 -732 -13q110 772 433 2115q263 68 791 20zM1112 2375q-2 90 63 191q134 194 345 211q170 4 214 -182q30 -147 -114 -293q-127 -114 -294 -103q-193 3 -214 176zM478 2375q-3 90 62 191q135 194 346 211q169 4 214 -182
q29 -147 -114 -293q-127 -114 -294 -103q-194 3 -214 176z" />
    <glyph glyph-name="ntilde" unicode="&#xf1;" horiz-adv-x="2062" 
d="M506 2329q602 -614 973 -1154q70 348 158 831q370 13 684 47q-256 -1269 -566 -2529q-644 964 -967 1375l-203 -1073q-300 12 -612 -7q152 626 533 2510zM2252 2942q-1 -446 -235 -606q-150 -94 -351 -81q-226 16 -309 201q-55 168 -145 93q-81 -95 45 -260
q-46 -66 -370 -23q-103 260 94 521q145 177 383 182q259 -4 313 -180q44 -181 141 -170q38 5 64 61q30 112 -38 260q58 70 408 2z" />
    <glyph glyph-name="ograve" unicode="&#xf2;" horiz-adv-x="2063" 
d="M814 731q12 -264 242 -269q194 -12 356 172q173 190 142 384q-47 243 -251 238q-248 -22 -411 -274q-81 -132 -78 -251zM2014 1837q284 -352 157 -915q-240 -907 -901 -1087t-924.5 120t-172.5 701q38 289 202.5 603.5t387.5 493.5q770 551 1251 84zM954 2498
q121 190 294 376q300 -174 673 -453l-295 -364q-162 61 -672 441z" />
    <glyph glyph-name="oacute" unicode="&#xf3;" horiz-adv-x="2063" 
d="M814 731q12 -264 242 -269q194 -12 356 172q173 190 142 384q-47 243 -251 238q-248 -22 -411 -274q-81 -132 -78 -251zM2014 1837q284 -352 157 -915q-240 -907 -901 -1087t-924.5 120t-172.5 701q38 289 202.5 603.5t387.5 493.5q770 551 1251 84zM1149 2137l-141 364
q493 279 867 453q93 -186 134 -376q-672 -380 -860 -441z" />
    <glyph glyph-name="ocircumflex" unicode="&#xf4;" horiz-adv-x="2063" 
d="M814 731q12 -264 242 -269q194 -12 356 172q173 190 142 384q-47 243 -251 238q-248 -22 -411 -274q-81 -132 -78 -251zM2014 1837q284 -352 157 -915q-240 -907 -901 -1087t-924.5 120t-172.5 701q38 289 202.5 603.5t387.5 493.5q770 551 1251 84zM1551 2495
q-178 -75 -531 -309l-111 361q393 284 748 444q280 -162 559 -444l-313 -371q-169 219 -352 319z" />
    <glyph glyph-name="otilde" unicode="&#xf5;" horiz-adv-x="2063" 
d="M814 731q12 -264 242 -269q194 -12 356 172q173 190 142 384q-47 243 -251 238q-248 -22 -411 -274q-81 -132 -78 -251zM2014 1837q284 -352 157 -915q-240 -907 -901 -1087t-924.5 120t-172.5 701q38 289 202.5 603.5t387.5 493.5q770 551 1251 84zM2294 2942
q-1 -446 -235 -606q-150 -94 -351 -81q-225 16 -309 201q-54 168 -144 93q-82 -95 44 -260q-46 -66 -370 -23q-102 260 94 521q146 177 383 182q259 -4 314 -180q43 -181 140 -170q39 5 64 61q30 112 -37 260q58 70 407 2z" />
    <glyph glyph-name="odieresis" unicode="&#xf6;" horiz-adv-x="2063" 
d="M814 731q12 -264 242 -269q194 -12 356 172q173 190 142 384q-47 243 -251 238q-248 -22 -411 -274q-81 -132 -78 -251zM2014 1837q284 -352 157 -915q-240 -907 -901 -1087t-924.5 120t-172.5 701q38 289 202.5 603.5t387.5 493.5q770 551 1251 84zM1557 2396
q-3 101 70 214q151 218 387 237q190 4 240 -204q34 -165 -128 -328q-142 -128 -329 -116q-217 4 -240 197zM846 2396q-3 101 70 214q151 218 387 237q190 4 240 -204q34 -165 -128 -328q-142 -128 -329 -116q-217 4 -240 197z" />
    <glyph glyph-name="divide" unicode="&#xf7;" horiz-adv-x="798" 
d="M168 731q64 203 261.5 282.5t324.5 2.5q154 -123 77 -320q-72 -154 -202 -221q-145 -75 -328.5 -24t-132.5 280zM340 1544q65 203 262 282.5t325 2.5q154 -123 77 -320q-73 -154 -202 -221q-145 -75 -328.5 -24t-133.5 280z" />
    <glyph glyph-name="oslash" unicode="&#xf8;" horiz-adv-x="2063" 
d="M1145 1215q-145 -66 -253 -233q-81 -132 -78 -251q2 -43 9 -79q150 263 322 563zM1550 1036q-161 -270 -323 -544q97 42 185 142q173 190 142 384zM1621 2043q70 121 143 247q260 -83 431 -187q-85 -139 -170 -279q271 -350 146 -902q-240 -907 -900 -1087
q-267 -72 -469 -67q-99 -171 -198 -343q-189 66 -377 167q78 142 173 310q-29 24 -54 53q-264 300 -173 701q38 289 202.5 603.5t387.5 493.5q486 348 858 290z" />
    <glyph glyph-name="ugrave" unicode="&#xf9;" horiz-adv-x="2038" 
d="M1220 2035q-43 -106 -167.5 -568.5t-96.5 -696.5q34 -153 163 -164q162 3 242 161q190 442 290 1266l642 -42q-40 -601 -190 -1112q-250 -812 -892 -1035q-291 -88 -572 -20q-454 168 -402 953q66 604 369 1243q306 24 614 15zM942 2498q121 190 294 376
q300 -174 673 -453l-295 -364q-162 61 -672 441z" />
    <glyph glyph-name="uacute" unicode="&#xfa;" horiz-adv-x="2038" 
d="M1220 2035q-43 -106 -167.5 -568.5t-96.5 -696.5q34 -153 163 -164q162 3 242 161q190 442 290 1266l642 -42q-40 -601 -190 -1112q-250 -812 -892 -1035q-291 -88 -572 -20q-454 168 -402 953q66 604 369 1243q306 24 614 15zM1137 2137l-141 364q493 279 867 453
q93 -186 134 -376q-672 -380 -860 -441z" />
    <glyph glyph-name="ucircumflex" unicode="&#xfb;" horiz-adv-x="2038" 
d="M1220 2035q-43 -106 -167.5 -568.5t-96.5 -696.5q34 -153 163 -164q162 3 242 161q190 442 290 1266l642 -42q-40 -601 -190 -1112q-250 -812 -892 -1035q-291 -88 -572 -20q-454 168 -402 953q66 604 369 1243q306 24 614 15zM1538 2495q-178 -75 -531 -309l-111 361
q392 284 747 444q281 -162 560 -444l-313 -371q-169 219 -352 319z" />
    <glyph glyph-name="udieresis" unicode="&#xfc;" horiz-adv-x="2038" 
d="M1220 2035q-43 -106 -167.5 -568.5t-96.5 -696.5q34 -153 163 -164q162 3 242 161q190 442 290 1266l642 -42q-40 -601 -190 -1112q-250 -812 -892 -1035q-291 -88 -572 -20q-454 168 -402 953q66 604 369 1243q306 24 614 15zM1544 2396q-4 101 69 214q152 218 388 237
q190 4 239 -204q34 -165 -127 -328q-142 -128 -329 -116q-217 4 -240 197zM833 2396q-4 101 69 214q152 218 388 237q190 4 239 -204q34 -165 -127 -328q-142 -128 -329 -116q-217 4 -240 197z" />
    <glyph glyph-name="yacute" unicode="&#xfd;" horiz-adv-x="2053" 
d="M714 -281q-281 140 -527 261q329 346 688 826q-268 419 -524 799l647 433q134 -266 352 -621q261 357 467 596q266 -195 497 -408q-1135 -1403 -1600 -1886zM1144 2137l-140 364q492 279 866 453q94 -186 134 -376q-672 -380 -860 -441z" />
    <glyph glyph-name="ydieresis" unicode="&#xff;" horiz-adv-x="2053" 
d="M714 -281q-281 140 -527 261q329 346 688 826q-268 419 -524 799l647 433q134 -266 352 -621q261 357 467 596q266 -195 497 -408q-1135 -1403 -1600 -1886zM1553 2396q-4 101 69 214q151 218 387 237q190 4 240 -204q34 -165 -128 -328q-142 -128 -328 -116
q-217 4 -240 197zM842 2396q-4 101 69 214q151 218 387 237q190 4 240 -204q34 -165 -128 -328q-142 -128 -328 -116q-217 4 -240 197z" />
    <glyph glyph-name="circumflex" unicode="&#x2c6;" horiz-adv-x="1397" 
d="M1183 2495q-178 -75 -531 -309l-111 361q392 284 747 444q281 -162 560 -444l-313 -371q-169 219 -352 319z" />
    <glyph glyph-name="ring" unicode="&#x2da;" horiz-adv-x="1041" 
d="M827 2871q82 75 211 119q117 34 219 25q96 -10 171 -62q120 -113 84 -285q-76 -409 -514 -449q-73 -2 -143 18q-114 37 -167 128q-124 267 139 506zM1091 2669q-49 -21 -61 -67q-9 -32 27 -49q26 -13 61 11q29 22 35 60q8 40 -23 51q-15 4 -39 -6z" />
    <glyph glyph-name="tilde" unicode="&#x2dc;" horiz-adv-x="1563" 
d="M2009 2942q0 -446 -234 -606q-150 -94 -352 -81q-225 16 -309 201q-54 168 -144 93q-81 -95 45 -260q-46 -66 -370 -23q-103 260 93 521q146 177 383 182q259 -4 314 -180q43 -181 141 -170q38 5 64 61q30 112 -38 260q58 70 407 2z" />
    <glyph glyph-name="Euro" unicode="&#x20ac;" horiz-adv-x="2312" 
d="M476 1242h-100l-26 358q127 1 245 1q53 112 126 207q313 412 790 560q637 212 1110 -229q-44 -193 -157 -461q-429 180 -710 126q-251 -58 -410 -199q639 2 854 1q-24 -157 -83 -364q-321 -1 -993 0q-19 -62 -30 -129q762 3 1001 2q-23 -157 -82 -364q-299 -1 -905 0
q41 -111 139 -159q485 -137 1000 147q51 -352 33 -526q-196 -223 -703.5 -330t-798.5 122.5t-341 669.5q-2 38 -2 76h-161l-26 358q106 1 206 1q10 68 24 132z" />
    <glyph glyph-name="OE" unicode="&#x152;" horiz-adv-x="3677" 
d="M1007 898q31 -267 322 -273q247 -14 438 159q218 224 173 451q-65 285 -324 279q-313 -26 -516 -321q-98 -155 -93 -295zM1770 -71q-320 -136 -731 -125q-519 2 -758 441q-105 260 -69 569q42 335 224 684q218 379 494 586q657 502 1216 299q1298 222 2026 188
q18 -107 -315 -705q-706 0 -1001 -43l-75 -364l672 21l-95 -520q-209 -18 -691 -33l-68 -324q500 -2 974 2q-47 -450 -102 -659q-448 -26 -1701 -17z" />
    <glyph glyph-name="oe" unicode="&#x153;" horiz-adv-x="2892" 
d="M814 731q12 -264 242 -269q194 -12 356 172q173 190 142 384q-47 243 -251 238q-248 -22 -411 -274q-81 -132 -78 -251zM1359 -137q-44 -16 -88 -28q-662 -180 -925.5 120t-172.5 701q38 289 202.5 603.5t387.5 493.5q619 443 1051 228q323 11 1469 13
q-113 -355 -168 -594l-820 9l-55 -278l575 7l-89 -440q-176 -12 -573 -17l-53 -254q410 -9 815 8q-76 -373 -102 -564q-381 -3 -1454 -8z" />
    </font>
</defs>
</svg>
